Format                      : UTF-8 "Malcolm in the Middle" Cheerleader subtitles. Comedy, Family. Language                    : French See reviews & details on a wide selection of Blu-ray & DVDs, both new & used. Watch Free on IMDb TV. Color primaries             : BT.709 Language                    : Spanish Malcolm in the Middle is an American television sitcom created by Linwood Boomer for the Fox Broadcasting Company. Writing library             : libebml v1.3.10 + libmatroska v1.5.2, Video Frame rate mode             : Constant Duration                    : 21 min 57 s Bit rate mode               : Constant Stream size                 : 35.2 MiB (1%) Default                     : No The series received critical acclaim and won a Peabody Award, seven Emmy Awards, one Grammy Award, and was nominated for seven Golden … Format settings, Reference  : 4 frames dpeliculashdmega@gmail.com. Writing application         : mkvmerge v46.0.0 ('No Deeper Escape') 64-bit Width                       : 1 920 pixels AKA: Malcolm in the Middle, Fighting in Underpants, Малкольм у центрi уваги, Malcolm. Posted by 3 years ago. "Malcolm in the Middle" Funeral subtitles. Service kind                : Complete Main I see the previews to this show when it was beginning to screen... and I must admit I hated it. Title                       : CinemaniaHDD Codec ID                    : S_TEXT/UTF8 The Mandalorian (2019) Temporada 1 DSNY+ WEB-DL 4K [HDR] Latino – CMHDD, El señor de los anillos El retorno del Rey (2003) EXTENDED 4K REMUX Latino – CMHDD, Un mujeriego en apuros (1990) Full 1080p Latino, Los Picapiedra (1960-1966) [Serie Completa] REMUX 1080p Latino – CMHDD. 15 December 2020 Bit rate                    : 224 kb/s   |  Format                      : E-AC-3 Close. ID                          : 3 Title                       : Francés [CinemaniaHDD] Format                      : E-AC-3 Peluda Venganza (2010) 1080p Latino. Codec ID                    : A_EAC3 Frame rate                  : 31.250 FPS (1536 SPF) 1h 32m Forced                      : No, Text #3 Title                       : Español latino [CinemaniaHDD] Stream size                 : 16.4 KiB (0%) Después de giros y vueltas, juntos se van a... 5.0 Format                      : UTF-8 10 Things You Didn’t Know about David Anthony Higgins, 10 December 2020 TV-PG Bit rate mode               : Constant Codec ID/Info               : UTF-8 Plain Text 2010. Format                      : E-AC-3 Forced                      : No, Audio #2 Archived. Title                       : Inglés [CinemaniaHDD] Compression mode            : Lossy Count of elements           : 365 Bit rate                    : 88 b/s Go on YouTube and you should find playlists of episodes divided into parts to watch them full. For the first 3 minutes of the Episode "Living Will" (3/6/2005), the bottom of the screen pages through a long list of fourteen alleged "producers". Default                     : No Stream size                 : 35.2 MiB (1%) Format                      : AVC ID                          : 2 Commercial name             : Dolby Digital Plus Malcolm in the Middle is an American television sitcom created by Linwood Boomer for the Fox Broadcasting Company. Channel(s)                  : 6 channels Format/Info                 : Enhanced AC-3 ID                          : 5 Count of elements           : 518 Format                      : Matroska Bit rate                    : 640 kb/s Temporadas: 1-2-3-4-5-6-7. Codec ID                    : S_TEXT/UTF8 Format/Info                 : Enhanced AC-3 Title                       : Inglés [CinemaniaHDD] I'm surprised no one has ever made a torrent for the HD version of Malcolm In the middle. Chroma subsampling          : 4:2:0 Duration                    : 21 min 57 s Default                     : Yes Go on YouTube and you should find playlists of episodes divided into parts to watch them full. Transfer characteristics    : BT.709 Descargar todos los capítulos de Malcolm in the middle, Malcolm el de en medio, Malcolm en audio latino en formatos MP4 y MKV. Compression mode            : Lossy 8/10. The one that was once on Netflix and now on Hulu. La empresa de un comercial inmobiliario lo manda a vender unas viviendas... Descargar Peluda Venganza (2010) Full HD 1080p Latino. Compression mode            : Lossy AKA: Malcolm in the Middle, Fighting in Underpants, Малкольм у центрi уваги, Malcolm. Codec ID/Info               : UTF-8 Plain Text While we have a chance to see the world from Dewey's very special point of view, Reese acts weird. 16 Jun. AKA: Fighting in Underpants, Malcolm in the Middle, Малкольм у центрi уваги, Malcolm Amazon.ca - Buy Malcolm in the Middle - Complete Collection (Seasons 1-7) - 22-DVD Box Set ( Malcolm in the Middle - Seasons One to Seven ) by Bryan Cranston at a low price; free shipping on qualified orders. ID                          : 6 Forced                      : No, Text #2 Channel layout              : L R Bit rate                    : 89 b/s 1h 30m Bit depth                   : 8 bits Malcolm In The Middle RARE Extended Opening 1080p - YouTube Add to Watchlist. 8 1 18. I was about to watch another episode of MITM on Netflix, and I noticed the 'HD' symbol that has come up. Default                     : No La empresa de un comercial inmobiliario lo manda... Descargar Peluda Venganza (2010) REMUX 1080p Latino.   |  Channel layout              : L R C LFE Ls Rs An extended version of the pilot episode was released with the 'Complete First Season' DVD boxset. malcolm.in.the.middle.s04e07.multi.1080p.web.h264-nero[eztv.io].mkv » video tv 4 months 2286 MB 1 5 Malcolm In The Middle - Temporada 5 [HDTV][Cap.501_522][Castellano][www.descargas2020.ORG][www.pctnew.ORG] » video tv "Malcolm in the Middle" Pilot subtitles. Malcolm in the Middle now available in 'HD' on Netflix! Stream size                 : 101 MiB (4%) 18.7k members in the malcolminthemiddle community.   |  You're not the boss of me now, You're not the boss of me now, You're not the boss of me now, and you're not so big. Title                       : Español latino [CinemaniaHDD] I never bothered to watch it. Malcolm In The Middle S04E12 MULTi 1080p WEB H264-NERO 00:22:00 | 1920×1080 @ 14646 kb/s | 23.98 fps(r) | ac3, 48000 Hz, stereo (fre) | 2.25 GiB. Format/Info                 : Enhanced AC-3 Totalmente Gratis y subido en 1 Solo Link en Mega, Formato HD. Sampling rate               : 48.0 kHz AKA: Малкольм у центрi уваги, Malcolm in the Middle, Fighting in Underpants, Malcolm. Episode Guide. Screen Rant Scan type                   : Progressive While we have a chance to see the world from Dewey's very special point of view, Reese acts weird. Duration                    : 21 min 52 s A lot of other Netflix shows do already have torrents, so I was curious. A gifted young teen tries to survive life with his dimwitted, dysfunctional family. 22 min Malcolm in the Middle T02E01 AMZN WEB-DL 1080p Latino [CNMNHDD].mkv Format : Matroska Format version : Version 4 File size : 2.40 GiB Duration : 22 min 23 s Overall bit rate : 15.3 Mb/s Movie name : Malcolm el de en medio T02E01 - CinemaniaHDD.Net I am on season 4, and it did say 1080p when I clicked 'option' on my PS4. Added to Watchlist. دانلود مستقیم و رایگان سریال Malcolm in the Middle 2000 به همراه زیرنویس فارسی و کیفیت بالا Malcolm in the Middle 2000 ملکام این د میدل از رسانه بیا تو موویز Bia2Movies. ID                          : 4 Matrix coefficients         : BT.709, Audio #1 Frame rate                  : 31.250 FPS (1536 SPF) Channel(s)                  : 2 channels View production, box office, & company info, Malcolm In The Middle: 5 Times Lois & Hal Were Couple Goals (& 5 Times They Weren't), 10 Things You Didn’t Know about David Anthony Higgins, Emma Stone to Star in The Curse Showtime Comedy From Uncut Gems' Safdie Brothers and Nathan Fielder. Malcolm in the Middle. Duration                    : 21 min 52 s La familia está compuesta por sus neuróticos padres Hal (Bryan Cranston) y Lois (Jane Kaczmarek), el hermano mayor Francis (Christopher Kennedy Masterson) y sus otros dos hermanos, Reese (Justin Berfield) y Dewey, Español Latino E-AC3 2.0 AMZN – Francés E-AC3 2.0 AMZN – Inglés E-AC3 5.1 AMZN, 0.0 Forced                      : No, Audio #3 See reviews & details on a wide selection of Blu-ray & DVDs, both new & used. In the episode when Francis runs away from military school, he and his father are talking in the van. Duration                    : 21 min 50 s Bit rate                    : 224 kb/s (2000–2006) TV Series | TV-PG | 22 min | Comedy, Family. Benjaminlemann. Sampling rate               : 48.0 kHz Service kind                : Complete Main I'm surprised no one has ever made a torrent for the HD version of Malcolm In the middle. Title                       : Francés [CinemaniaHDD] Service kind                : Complete Main Encoded date                : UTC 2020-08-20 01:43:06 Bit rate                    : 102 b/s AKA: Малкольм у центрi уваги, Malcolm in the Middle, Fighting in Underpants, Malcolm. Language                    : English Malcolm In The Middle: 5 Times Lois & Hal Were Couple Goals (& 5 Times They Weren't), 14 December 2020 Color range                 : Limited ExtraTorrent.ag Page 1. Channel layout              : L R Yes, no, maybe, I don't know, can you repeat the question? The animation clips shown briefly during the opening credits are from the Japanese anime Nazca (1998), an Saint Seiya-like anime involving Inca mythology instead of Greek. ID                          : 7 2019. However, I am not really convinced that this is true 1080p, it is still quite grainy and choppy. Commercial name             : Dolby Digital Plus Display aspect ratio        : 16:9 La empresa de un comercial inmobiliario lo manda... 5.0 There is a pair of headlights behind them following very close, but when seen from outside, the car is driving down the rain soaked road with no car behind them. Search for malcolm in the middle torrents. TVovermind.com "Malcolm in the Middle" Dinner Out subtitles. Bit rate                    : 14.3 Mb/s Forced                      : No, Serie de TV (2000-2006). Codec ID                    : V_MPEG4/ISO/AVC For an enhanced browsing experience, get the IMDb app on your smartphone or tablet. Stream size                 : 14.2 KiB (0%) opening theme song: "Malcolm in the Middle" Funeral subtitles. Forced                      : No Language                    : Spanish AKA: Malcolm in the Middle, Fighting in Underpants, Малкольм у центрi уваги, Malcolm For fans of the TV show Malcolm In The Middle. Format profile              : High@L4 Aunt Helen died and the family prepares for the funeral, an occasion that doesn't go as planned. Emma Stone to Star in The Curse Showtime Comedy From Uncut Gems' Safdie Brothers and Nathan Fielder. Frame rate                  : 31.250 FPS (1536 SPF) 1 year ago. Continue reading → TV Shows 1080p, H264, in, Malcolm, Middle, Multi, NERO, S04E12, The, WEB. Codec ID                    : A_EAC3 Language                    : French Duration                    : 21 min 57 s Codec ID                    : A_EAC3 Format/Info                 : Advanced Video Codec Commercial name             : Dolby Digital Plus Format settings             : CABAC / 4 Ref Frames Stream size                 : 14.4 KiB (0%) 2019. Bit rate mode               : Constant Generation Renovation Lake House S01E01 In the Middle … Format version              : Version 4 "Malcolm in the Middle" Dinner Out subtitles. | Format settings, CABAC      : Yes Forced                      : No, Text #1 File size                   : 2.37 GiB Malcolm in the Middle T07E01 AMZN WEB-DL 1080p Latino [CNMNHDD].mkv Height                      : 1 080 pixels Generation Renovation Lake House S01E01 In the Middle of It WEBRip x264-LiGATE. The series was first broadcast on January 9, 2000; it ended its six year run on May 14, 2006 after seven seasons and 151 episodes. Download Malcolm In The Middle » Malcolm In The Middle could be available for fast direct download Stream Malcolm In The Middle » Malcolm In The Middle could be available for streaming ... malcolm.in.the.middle.s04e18.multi.1080p.web.h264-nero[eztv.io].mkv » video tv Bits/(Pixel*Frame)          : 0.288 1h 0m Default                     : Yes Duration                    : 21 min 57 s Aunt Helen died and the family prepares for the funeral, an occasion that doesn't go as planned. Malcolm in the Middle S05 E10 Hot Tub. Language                    : English A gifted young teen tries to survive life with his dimwitted, dysfunctional family. Overall bit rate            : 15.4 Mb/s Gear up for Stephen King's upcoming adaptation with a look at some of our favorite photos from "The Stand," starring James Marsden, Whoopi Goldberg, and Alexander SkarsgÃ¥rd. {"handle":"cinemaniahdd","arch":"js","styles":{"a":"000066","b":100,"c":"FFFFFF","d":"FFFFFF","k":"000066","l":"000066","m":"000066","n":"FFFFFF","p":"10.62","q":"000066","r":100,"cnrs":"0.31","fwtickm":1}}, CINEMANIAHD NO ALMACENA NINGUN TIPO MATERIAL con derechos de autor, el material es recolectado de todas fuentes de Internet, Si desea que dicho material sea borrado porfavor contactarnos por email Stream size                 : 2.20 GiB (93%) TV Series Sampling rate               : 48.0 kHz Hot Tub Time Machine 2 in HD 1080p, Watch Hot Tub Time Machine 2 in HD, Watch Hot Tub Time Machine 2 Online, Hot Tub Time Machine 2 Full Movie, Watch Hot Tub Time Machine 2 … Sitcom familiar que aborda los divertidos problemas y situaciones de una familia americana de clase media en la que el hijo Malcolm (Frankie Muniz) parece ser el único sensato… o al menos el único que da señales de cordura. Codec ID                    : S_TEXT/UTF8 TVLine.com Haz clic aquí para cancelar la respuesta. Channel(s)                  : 2 channels Duration                    : 21 min 57 s ID                          : 1 The series was first broadcast on January 9, 2000; it ended its six year run on May 14, 2006 after seven seasons and 151 episodes. صفحه‌اصلی ; فیلم. Format                      : UTF-8 720p-1080p Malcolm in the Middle T07E01 AMZN WEB-DL 1080p Latino [CNMNHDD].mkv Format : Matroska Format version : Version 4 File size : 2.37 GiB Duration : 21 min 57 s Overall bit rate : 15.4 Mb/s Movie name : Malcolm el de en medio T07E01 - CinemaniaHDD.Net Frankie Muniz, Justin Berfield, Bryan Cranston, Jane Kaczmarek, Christopher Masterson, and Erik Per Sullivan in Malcolm in the Middle (2000) Default                     : No Movie name                  : Malcolm el de en medio T07E01 - CinemaniaHDD.Net Default                     : No Codec ID/Info               : UTF-8 Plain Text "Malcolm in the Middle" Cheerleader subtitles. Color space                 : YUV 1 year ago. Ahora puedes descargar peliculas por los mejores servidores gratis, incluyendo mega hd, podrás disfrutar de las películas hd eso no es todo, lo importante en hd full con opción de películas 1 link mega, Descargar Malcolm in the Middle (2006) Temporada 7 AMZN WEB-DL 1080p latino, Peluda Venganza (2010) Full HD 1080p Latino, Peluda Venganza (2010) REMUX 1080p Latino, Amor de Película (2019) WEB-DL 1080p Latino, His Dark Materials (2020) Temporada 2 AMZN WEB-DL 1080p Latino. Especially since Hulu is USA only and no … AKA: Malcolm in the Middle, Fighting in Underpants, Малкольм у центрi уваги, Malcolm 95 votes, 24 comments. Amazon.ca - Buy Malcolm in the Middle - Complete Collection (Seasons 1-7) - 22-DVD Box Set ( Malcolm in the Middle - Seasons One to Seven ) by Bryan Cranston at a low price; free shipping on qualified orders. Ella es realista, enérgica. This was the first episode to air after the Academy Awards controversy over limiting to three, the number of "producers" who could win a best film Oscar. Count of elements           : 366 Él es romántico, tímido. Frame rate                  : 23.976 (24000/1001) FPS | En un mundo similar al nuestro pero habitado por brujas, osos guerreros y daimonions, una valiente joven... Hola tendrás una serie que se llama charmed? 1:19:18. |

Circuit Usa Avril 2020, Vol Paris New York Coronavirus, Décoration Intérieur Casa, Prix Voyage Japon Tout Compris, Mousse Au Chocolat Cyril Lignac,

Laisser un commentaire

Votre adresse de messagerie ne sera pas publiée. Les champs obligatoires sont indiqués avec *